• XMedia Recode 3 1 0 0 Portable 3DLgq

    XMedia Recode 3 1 0 0 Portable

    XMedia Recode 3 1 0 0 Portable 3DLgq Description

    D O W N L O A D XMedia Recode 3 1 0 0 Portable 3DLgq



    XMedia Recode is a free All-In-One video converter and audio converter tool. Operating systems: Win 7, Win 8, Win 8.1, Win 10 XMedia Recode Portable .Selecting the picture size (1:1, 3:2, 4:3, 5:4, 5:6, 11:9,16:9, 16:10, 2.21:1)- Zoom (no letterbox, the media, Pan 27 Feb 2016XMedia Recode (portable) v3.3.0.0..XMedia Recode 3.1.1.0 loads without any crashes. V3.1.1.0. Mark-B 2012-06-11 10:21 x.x.x listed is the much earlier v2.3.3.3 (May 2011)..XMedia Recode is a free All-In-One video converter, audio converter and video editor. OS:Windows Version:3.3.5.8. Released:Nov 10,2016. File size:9.1MB. 8.1/10 Download XMedia Recode 3.3.5.8 portable [13.7MB] [Win] [Portable] . CD/DVD/Blu-ray recovery (3) K-Lite Codec Pack Standard 13.3.0 / Update 13.3.1..162 posts / 0 new Last seen: 1 month 3 weeks ago Description: XMedia Recode Portable is a PortableApps.com Launcher for the popular XMedia Recode, so you can take your video 3.0.3.9 Dev Test 1 (2011-10-12):..XMedia Recode Portable is a universal media converter, which integrates most 5 star. 1- 4 star. 0- 3 star. 0- 2 star. 0- 1 star. 1. My rating. 0 stars. Write review..XMedia Recode 3.2.8.0 Portable - Audio a video konvertor. XMedia Recode Windows XP/Vista/7/8/10. Web programu: Ne. Diskuze (0) Další obrázky (10)..XMedia Recode 3 - Portable Download WebSites X5 Professional 10 – Winamp GTA 3 .XMedia Recode can convert almost all known audio and video formats, including Requires: Win 10 / 8 / 7 / Vista / XP Download@Authors Site (Portable).XMedia Recode on helppokäyttöinen ohjelma audio- ja videotiedostojen konvertointiin. Sen avulla voit XMedia Recode (portable) v2.3.1.3 Tiedoston koko 10,71 MB (< 2min @ 1Mbps) 1.8.2015XMedia Recode (portable) v3.2.5.0..XMedia Recode Portable 3.3.5.8 kostenlos in deutscher Version downloaden! Weitere Windows 10, Windows 8, Windows 7 0 von 1.000 Zeichen. 4. . Any Video Converter Free (Mac). 3. Any Video Converter Free (Mac)..XMedia Recode Portable - wersja programu działająca bez instalacji w systemie. Wersje Portable można System Operacyjny: Windows 2000/XP/Vista/7/8/10..Download XMedia Recode Portable 3.1.2.8. Multiformat video Free download. Vote: 1 2 3 4 5. 0.0 (0). Category: Converters. Version: 3.1.2.8. Works under:..This guide will introduce you to a program called XMedia Recode, a great freeware On Saturday, August 13, 2011 at 10:07 PM, Xinok said:..převod formátů edituje starsi verze XMedia Recode Portable 3.1.3.0. do 30 vteřin, vyberte si prosím jeden z alternativních odkazů: #1 alternativní odkaz..Find the best programs like XMedia Recode for Mac. More than 10 alternatives to choose: HandBrake, Subler, Avidemux and more. HandBrake 0.10.0. Free Download- Windows &middot- Mac Watch any video on your portable device. Is this a good alternative for XMedia Recode? Thanks for voting! 8. 3 votes. Download .Az XMedia Recode egy konvertáló program, mely szinte az összes ismert audio Képméret (1:1, 3:2, 4:3, 5:4, 05:06, 11:9,16:9, 16:10, 2.21:1) megválasztása, .XMedia Recode to bezpłatny program dzięki, któremu przeprowadzimy Pobierz ( 13,4 MB / 31,3 MB ) – Windows 7,8,10 Pobierz /.paf PAppC/ .Xmedia Recode è uno strumento di conversione video che trasforma semplicemente il Opinioni su Xmedia Recode. 3.0. 0. 0. 1. 0. 0. 1 commenti. Commento .3.3.5.8 / November 10, 2016- 7 months ago (2016-11-10). Development status, active. Operating system &middot- Windows &middot- Type, Audio/video transcoder &middot- License &middot- Proprietary, freeware. Website, XMedia-Recode.de/en/. XMedia Recode is a Freeware video and audio transcoding program for Microsoft Windows 2 Supported input formats- 3 Supported output formats..LoadPlugin("G:\MeGUIPortable\tools\ffms\ffms2.dll") . DAR 4:3], q=-1--1, pass 2, 350 kb/s, 90k tbn, 23.98 tbc Stream #0:1: Audio: none, 48000 Hz, I forgot to tell that I can open and process this AviSynth script using XMedia. Recode and the preview video option dont work using the provided TEncoder.XMedia Recode converts: 3GP to AVI, 3GP to FLV, AC3 to MP3, AC3 to Windows 7, 8, 8.1, 10- DirectX: DirectX 9- Nvidia CUDA: Nvidia GPU .XMedia Recode. バージョン・リリース日: v3.3.5.8(16/11/10). 無料の動画一括変換ソフト. ソフト種別: フリーソフト (寄付歓迎). 対応環境 :: Windows 7/8/8.1/10. 窓の杜 .XMedia Recode Download: XMedia Recode ist ein kostenloses M4A, WMA, OGG, AC3 und FLAC, aber auch die Videoformate MPEG-1, MPEG-2, MPEG-4, .XMedia Recode to bezpłatne narzędzie do konwertowania plików zapisanych 0 nowych. Dementor 34 #28 25.03.2016 00:44. Bardzo wypasiony program, można Poprawcie łącze do wersji portable. . PLUS dodawaj też ścieżkę dźwiękową w formacie DOLBY DIGITAL AC-3. (niezalogowany) #10 28.11.2012 10:07..XMedia Recode Portable to narzędzie do konwersji plików audio i wideo. Potrafi także konwertować pliki z płyt DVD. Maciej Kępka. 13.09.2012, godz. 10:00..Скачать XMedia Recode 3 3 3 0 Portable - Название программы: XMedia XMedia Recode 3.3.3.0 Portable Windows 7 / 8 / 8.1 / 10, 32|64-bit (32x64).XMedia Recode Portable é a versão portátil do conversor de vídeo XMedia Recorde. Dentre os formatos suportados pelo conversor, estão: AVI, DivX, MPEG-1, .XMedia Recode 3.3.5.8 Deutsch: Perfekt für Handys, iPods & Co.: Mit der Kompatibel mit Windows 10 XMedia Recode Portable. XMedia .Firefox Portable (v42.0) - OperaUSB Pack (v2.1) - XMedia Recode (v3.2.6.8) AmoK CD/DVD Burning (v1.10) . Spybot - Search & Destroy Portable (v2.3)

    XMedia Recode 3 1 0 0 Portable

    XMedia Recode 3 1 0 0 Portable 3DLgq Description

    D O W N L O A D XMedia Recode 3 1 0 0 Portable 3DLgq



    XMedia Recode is a free All-In-One video converter and audio converter tool. Operating systems: Win 7, Win 8, Win 8.1, Win 10 XMedia Recode Portable .Selecting the picture size (1:1, 3:2, 4:3, 5:4, 5:6, 11:9,16:9, 16:10, 2.21:1)- Zoom (no letterbox, the media, Pan 27 Feb 2016XMedia Recode (portable) v3.3.0.0..XMedia Recode 3.1.1.0 loads without any crashes. V3.1.1.0. Mark-B 2012-06-11 10:21 x.x.x listed is the much earlier v2.3.3.3 (May 2011)..XMedia Recode is a free All-In-One video converter, audio converter and video editor. OS:Windows Version:3.3.5.8. Released:Nov 10,2016. File size:9.1MB. 8.1/10 Download XMedia Recode 3.3.5.8 portable [13.7MB] [Win] [Portable] . CD/DVD/Blu-ray recovery (3) K-Lite Codec Pack Standard 13.3.0 / Update 13.3.1..162 posts / 0 new Last seen: 1 month 3 weeks ago Description: XMedia Recode Portable is a PortableApps.com Launcher for the popular XMedia Recode, so you can take your video 3.0.3.9 Dev Test 1 (2011-10-12):..XMedia Recode Portable is a universal media converter, which integrates most 5 star. 1- 4 star. 0- 3 star. 0- 2 star. 0- 1 star. 1. My rating. 0 stars. Write review..XMedia Recode 3.2.8.0 Portable - Audio a video konvertor. XMedia Recode Windows XP/Vista/7/8/10. Web programu: Ne. Diskuze (0) Další obrázky (10)..XMedia Recode 3 - Portable Download WebSites X5 Professional 10 – Winamp GTA 3 .XMedia Recode can convert almost all known audio and video formats, including Requires: Win 10 / 8 / 7 / Vista / XP Download@Authors Site (Portable).XMedia Recode on helppokäyttöinen ohjelma audio- ja videotiedostojen konvertointiin. Sen avulla voit XMedia Recode (portable) v2.3.1.3 Tiedoston koko 10,71 MB (< 2min @ 1Mbps) 1.8.2015XMedia Recode (portable) v3.2.5.0..XMedia Recode Portable 3.3.5.8 kostenlos in deutscher Version downloaden! Weitere Windows 10, Windows 8, Windows 7 0 von 1.000 Zeichen. 4. . Any Video Converter Free (Mac). 3. Any Video Converter Free (Mac)..XMedia Recode Portable - wersja programu działająca bez instalacji w systemie. Wersje Portable można System Operacyjny: Windows 2000/XP/Vista/7/8/10..Download XMedia Recode Portable 3.1.2.8. Multiformat video Free download. Vote: 1 2 3 4 5. 0.0 (0). Category: Converters. Version: 3.1.2.8. Works under:..This guide will introduce you to a program called XMedia Recode, a great freeware On Saturday, August 13, 2011 at 10:07 PM, Xinok said:..převod formátů edituje starsi verze XMedia Recode Portable 3.1.3.0. do 30 vteřin, vyberte si prosím jeden z alternativních odkazů: #1 alternativní odkaz..Find the best programs like XMedia Recode for Mac. More than 10 alternatives to choose: HandBrake, Subler, Avidemux and more. HandBrake 0.10.0. Free Download- Windows &middot- Mac Watch any video on your portable device. Is this a good alternative for XMedia Recode? Thanks for voting! 8. 3 votes. Download .Az XMedia Recode egy konvertáló program, mely szinte az összes ismert audio Képméret (1:1, 3:2, 4:3, 5:4, 05:06, 11:9,16:9, 16:10, 2.21:1) megválasztása, .XMedia Recode to bezpłatny program dzięki, któremu przeprowadzimy Pobierz ( 13,4 MB / 31,3 MB ) – Windows 7,8,10 Pobierz /.paf PAppC/ .Xmedia Recode è uno strumento di conversione video che trasforma semplicemente il Opinioni su Xmedia Recode. 3.0. 0. 0. 1. 0. 0. 1 commenti. Commento .3.3.5.8 / November 10, 2016- 7 months ago (2016-11-10). Development status, active. Operating system &middot- Windows &middot- Type, Audio/video transcoder &middot- License &middot- Proprietary, freeware. Website, XMedia-Recode.de/en/. XMedia Recode is a Freeware video and audio transcoding program for Microsoft Windows 2 Supported input formats- 3 Supported output formats..LoadPlugin("G:\MeGUIPortable\tools\ffms\ffms2.dll") . DAR 4:3], q=-1--1, pass 2, 350 kb/s, 90k tbn, 23.98 tbc Stream #0:1: Audio: none, 48000 Hz, I forgot to tell that I can open and process this AviSynth script using XMedia. Recode and the preview video option dont work using the provided TEncoder.XMedia Recode converts: 3GP to AVI, 3GP to FLV, AC3 to MP3, AC3 to Windows 7, 8, 8.1, 10- DirectX: DirectX 9- Nvidia CUDA: Nvidia GPU .XMedia Recode. バージョン・リリース日: v3.3.5.8(16/11/10). 無料の動画一括変換ソフト. ソフト種別: フリーソフト (寄付歓迎). 対応環境 :: Windows 7/8/8.1/10. 窓の杜 .XMedia Recode Download: XMedia Recode ist ein kostenloses M4A, WMA, OGG, AC3 und FLAC, aber auch die Videoformate MPEG-1, MPEG-2, MPEG-4, .XMedia Recode to bezpłatne narzędzie do konwertowania plików zapisanych 0 nowych. Dementor 34 #28 25.03.2016 00:44. Bardzo wypasiony program, można Poprawcie łącze do wersji portable. . PLUS dodawaj też ścieżkę dźwiękową w formacie DOLBY DIGITAL AC-3. (niezalogowany) #10 28.11.2012 10:07..XMedia Recode Portable to narzędzie do konwersji plików audio i wideo. Potrafi także konwertować pliki z płyt DVD. Maciej Kępka. 13.09.2012, godz. 10:00..Скачать XMedia Recode 3 3 3 0 Portable - Название программы: XMedia XMedia Recode 3.3.3.0 Portable Windows 7 / 8 / 8.1 / 10, 32|64-bit (32x64).XMedia Recode Portable é a versão portátil do conversor de vídeo XMedia Recorde. Dentre os formatos suportados pelo conversor, estão: AVI, DivX, MPEG-1, .XMedia Recode 3.3.5.8 Deutsch: Perfekt für Handys, iPods & Co.: Mit der Kompatibel mit Windows 10 XMedia Recode Portable. XMedia .Firefox Portable (v42.0) - OperaUSB Pack (v2.1) - XMedia Recode (v3.2.6.8) AmoK CD/DVD Burning (v1.10) . Spybot - Search & Destroy Portable (v2.3)


  • Commentaires

    Aucun commentaire pour le moment

    Suivre le flux RSS des commentaires


    Ajouter un commentaire

    Nom / Pseudo :

    E-mail (facultatif) :

    Site Web (facultatif) :

    Commentaire :